湄公河行动[未删减终极收藏版]Operation.Mekong.2016.1080p.WEB-DL


总分5.0
  • 评分:4人参与评分
  • 分级: 资源
  • 类型:
  • 格式:[MKV]
  • 发行时间:2016年
  • 地区/语言:大陆(普通话)
  • 统计:34368次 浏览
  • 时间:2016-12-17 13:54:07发布 | 2017-07-03 16:18:09更新

电骡资源

简介


【影片原名】Mei Gong he xing dong 
【外文别名】Operation Mekong - International (English title) 
【中文译名】湄公河行动/湄公河大案/湄公河 
【出品公司】Beijing Huaming Xingkong International Media Company 
【出品年代】2016 年 
【上映日期】2016年9月30日 中国 
【影片级别】Australia:MA15+ (2016) | Canada:14A (British Columbia) | Hong Kong:IIB | Singapore:M18 | Singapore:NC16 (edited version) 
【IMDB评分】7.0/10 (640 votes) 
【国  家】中国/中国香港 
【类  别】动作/冒险 
【导  演】林超贤 Dante Lam 
【主  演】张涵予 Hanyu Zhang 
 冯文娟 Wenjuan Feng ... Guo Bing 
 陈宝国 Baoguo Chen ... Minister of Pulic Security Jiang Haifeng 
 吴旭东 Xudong Wu ... SWAT Captain 
 吴林锴 Wu Linkai ... Chinese SWAT 
 Zhan Liguo ... Er Lang 
 Sun Chun ... Director General 
 Liu Xianda ... The Vanguard 
 Oak Keerati ... Wala 
 Ken Lo ... Hitong 
 Pawarith Monkolpisit ... Naw Kham 
 Carl Ng ... Pierre (as Carl Wu) 
 Vithaya Pansringarm 
 Eddie Peng 
 Ron Weaver ... Puja 
  
  
【影片长度】140 Mins 
【对白语言】普通话/粤语/缅甸语/英语/泰语 
【字幕语言】中英文双语字幕(内嵌) 
  
【内容简介】 
  
2011年10月5日,两艘中国商船在湄公河金三角水域遭遇袭击,13名中国船员全部遇难,泰国警方从船上搜出90万颗冰毒。消息传回国内,举国震惊。为了查明真相,云南缉毒总队长高刚(张涵予饰)接受了特殊任务,率领一支骁勇善战的战斗小组进入泰国境内,与潜伏在泰国的情报员方新武(彭于晏饰)碰头,二人联手深入金三角查案。经过调查,发现案件背后果然有着重重疑点,真正的凶手在嫁祸残害无辜中国船员后,不但逍遥法外,更意图利用毒品制造更大的阴谋……二人决定,不惜一切代价也要拿下真凶,打击毒品犯罪,为无辜国人讨回公道! 
  
《湄公河行动》改编自“10.5湄公河大案”,讲述了一桩悲剧背后所隐藏的惊天阴谋。2011年10月5日清晨,两艘中国商船在湄公河金三角流域遇袭,船上13名中国船员全部遇难,并在船上发现90万粒毒品。为了还遇难同胞一个清白,中国公安集结警队精英组成了此次案件的特别行动小组,企图揪出案件的幕后黑手。然而过程并非他们想得那么简单,事件的进展扑朔迷离,通往真相的道路更是险象环生。身手不凡的对手受雇与谁?普通商船上为何有大量毒品?层层谜团等待被解开…… 
  
  
关于《湄公河行动》你应该知道的10件事 
  
    1彭于晏趁开机前接受了枪械训练以及学习与缉毒犬相处等连串特训,还练习泰文及缅甸语,而此前他从没接受过专业射击训练 。 
    2剧组请来泰王保镖负责演员们的动作训练,包括射击、近身格斗等项目。 
    3影片女一号冯文娟为符合角色要求,剪掉长发成了寸头。 
    4吴旭东为了参演该片不仅把皮肤晒得更黑,还请了散打教练对自己进行格斗训练。 
    5影片中伍麟凯出演一名金边中国特警,全片都用泰语对白。 
    6出品方博纳影业集团的总裁于冬在电影中客串了公安部副总警监。 
    7在一场警匪追逐戏份中,有300人参与。 
    8片中的绿色电灯和帮派分子佩戴的首饰等道具,都是林超贤从泰国旧货市场搜罗的“战利品”。 
    9在马来西亚沼泽拍摄之时,导演林超贤不慎被长达六寸的毒蜈蚣咬伤脚踝,甚至一度休克。 
    10该部电影得到公安部的支持,拿到了“境外持枪”许可,因此很多演员和工作人员在拍摄现场甚至要穿着真正的防弹衣进行拍摄。 

郑重声明: 
 本站提供的所有影视作品均是在网上搜集,任何涉及商业盈利目的均不得使用,否则产生的一切后果将由您自己承担!本站将不对本站的任何内容负任何法律责任!该下载内容仅做宽带测试使用,请在下载后24小时内删除。请购买正版! 


  
 
  
 
  
 
下载地址 


General 
Format                         : Matroska 
Format version                 : Version 4 / Version 2 
File size                      : 2.39 GiB 
Duration                       : 2h 3mn 
Overall bit rate               : 2 766 Kbps 
Encoded date                   : UTC 2016-12-16 09:31:22 
Writing application            : mkvmerge v7.1.0 ('Good Love') 32bit built on Jul 27 2014 12:59:18 
Writing library                : libebml v1.3.0 + libmatroska v1.4.1 

Video 
ID                             : 1 
Format                         : AVC 
Format/Info                    : Advanced Video Codec 
Format profile                 : High@L4 
Format settings, CABAC         : Yes 
Format settings, ReFrames      : 3 frames 
Codec ID                       : V_MPEG4/ISO/AVC 
Duration                       : 2h 3mn 
Bit rate                       : 2 701 Kbps 
Width                          : 1 920 pixels 
Height                         : 816 pixels 
Display aspect ratio           : 2.35:1 
Frame rate mode                : Constant 
Frame rate                     : 24.000 fps 
Color space                    : YUV 
Chroma subsampling             : 4:2:0 
Bit depth                      : 8 bits 
Scan type                      : Progressive 
Bits/(Pixel*Frame)             : 0.072 
Stream size                    : 2.34 GiB (98%) 
Writing library                :  vtc-test 
Default                        : Yes 
Forced                         : No 
Color range                    : Limited 
Color primaries                : BT.709 
Transfer characteristics       : BT.709 
Matrix coefficients            : BT.709 

Audio 
ID                             : 2 
Format                         : AAC 
Format/Info                    : Advanced Audio Codec 
Format profile                 : HE-AAC / LC 
Codec ID                       : A_AAC 
Duration                       : 2h 3mn 
Bit rate                       : 62.9 Kbps 
Channel(s)                     : 2 channels 
Channel positions              : Front: L R 
Sampling rate                  : 44.1 KHz / 22.05 KHz 
Frame rate                     : 21.533 fps (1024 spf) 
Compression mode               : Lossy 
Stream size                    : 55.8 MiB (2%) 
Default                        : Yes 
Forced                         : No



  



 
 
 
 



 



楼主最新资源

资源评论

  •   2017-02-23 18:37:59

    1024最新地址:http://23.228.193.221/?id=xxx007 请叫我雷锋~

  •   2017-05-03 10:17:15

    搜妆网www.souzhuang.cn请叫我雷锋

  •   2017-06-02 13:55:32

    直播最新福利就在【悦悦社】yueyueshe.cn经常开车

  •   2017-07-03 16:18:09

    http://www.xybba.cn/

我要评论

资源评分: 很好 不错 一般 较差 很差
  • 小贴士:

  • 1. 类似“顶”、“沙发”之类没有营养的文字,对勤劳贡献的楼主来说是令人沮丧的反馈信息。
  • 2. 提问之前请再仔细看一遍楼主的说明,或许是您遗漏了。
  • 3. 勿催片。请相信骡友们对分享是富有激情的,如果确有更新版本,您一定能搜索到。
  • 4. 请勿到处挖坑绊人、招贴广告。即占空间让人厌烦,又没人会搭理,于人于己都无利。
  • 如果您发现自己的评论不见了,请参考以上4条。

推荐资源

  • [MKV] 阿姨 My Aunt 2016 全版
点击复制本页面地址给QQ/MSN/Gtalk好友

楼主信息...
更多
你可能喜欢的
关于我们 / 人才招募 / 商务合作 / 版权声明 / / 快手排行榜
分享资源 | 请在遵循创作共用的约定下使用本站内容
©2006-2012 QvoCD.ORG Inc. All rights Reserved.